#TITLE:Earth Scape;
#SUBTITLE:~Ganos original~;
#ARTIST:dj TAKA;
#TITLETRANSLIT:;
#SUBTITLETRANSLIT:;
#ARTISTTRANSLIT:;
#CREDIT:;
#BANNER:Earth Scape.png;
#BACKGROUND:Earth Scape-BG.png;
#LYRICSPATH:;
#CDTITLE:GanosCD.png;
#MUSIC:Earth Scape.mp3;
#OFFSET:-0.420;
#SAMPLESTART:54.799;
#SAMPLELENGTH:12.000;
#SELECTABLE:YES;
#BPMS:0.000=94.000,10.000=91.000,11.000=88.000,12.000=89.000,14.500=87.000,17.500=94.000,23.000=93.000,40.000=94.000,45.500=92.000,46.000=90.500,46.500=88.000,47.000=86.500,47.500=85.000,48.000=92.500,52.000=95.000,60.500=93.000,63.000=85.000,64.000=94.000,72.000=95.000,74.000=94.000,75.500=80.000,76.000=88.000,80.000=83.400,84.000=94.000,146.000=92.000,147.000=88.000,148.000=90.000,149.500=94.000,152.000=93.000,164.000=92.000,168.000=90.000,171.000=90.000,172.000=88.000,174.063=65.000,175.000=45.000,176.000=48.000,177.000=53.000;
#STOPS:;
#BGCHANGES:;
// cache tags:
#FIRSTBEAT:0.000;
#LASTBEAT:180.500;
#SONGFILENAME:Songs/Chilean Keyboard Megapack 3/(Ganos) Earth Scape/Earth Scape.sm;
#HASMUSIC:1;
#HASBANNER:1;
#MUSICLENGTH:127.012;
// end cache tags

//---------------dance-single - ----------------
#NOTES:
     dance-single:
     :
     Challenge:
     10:
     0.580,0.693,0.795,0.094,0.457,403.000,101.000,12.000,0.000,1.000:
1001
0100
0010
0001
0100
0010
1000
0100
0010
0100
1000
0001
0000
0000
0010
0000
,
1001
0010
0100
1000
0010
0100
0001
0010
0100
0010
0001
1000
0000
0000
1000
0001
,
1100
0001
0010
0100
0010
0001
0100
0010
1000
0100
0010
0001
0100
0010
0100
0010
,
1001
0000
0000
0000
0110
0000
0000
0000
0000
0000
0001
0100
0000
0000
0010
0000
,
1100
0001
0010
0100
0000
0010
0100
1000
,
0011
1000
0010
0100
0000
0001
1000
0001
,
1100
0001
1000
0010
0000
0100
0010
1000
,
0011
0100
0010
1000
0000
1000
0001
0010
,
2000
3002
0203
0320
0000
0000
0000
0000
,
2030
3002
2003
3200
0000
0010
0010
1000
,
0301
0010
0000
0000
0000
0000
0000
0000
0000
0000
0000
0000
0000
0000
0000
0000
0000
0000
0000
0000
0000
0000
0000
0000
1100
0000
0000
0000
0000
0000
0000
0000
1100
0000
0000
0000
0000
0000
0000
0000
0000
0000
0000
0000
0001
0000
0000
0000
0000
0000
0000
0000
0000
0000
0000
0000
1000
0000
0000
0000
0010
0000
0000
0000
,
0100
0000
0001
0100
0010
0000
1000
0001
0100
0000
0010
0000
1000
0000
0100
0000
,
0110
0000
0000
0000
0000
0000
0000
0000
0000
0000
0000
0000
0000
0000
0000
0000
1001
0000
0000
0000
0000
0000
0000
0000
0000
0000
0000
0000
0000
0000
0000
0000
0001
0100
0000
0000
0000
0000
0000
0000
0000
0000
0000
0000
0000
0000
0000
0000
1100
0000
0000
0000
0000
0000
0000
0000
0000
0000
0000
0000
0000
0000
0000
0000
,
1001
0010
0100
0000
0000
0000
0010
0100
,
1001
0000
1000
0010
1100
0000
0001
1000
,
0011
1000
0001
0100
0010
0000
0001
0000
,
1100
0000
0000
0000
0000
0000
0000
0000
0000
0000
0000
0000
0000
0000
0000
0000
1001
0000
0000
0000
0000
0000
0000
0000
0000
0000
0000
0000
0000
0000
0000
0000
0001
0100
0000
0000
0000
0000
0000
0000
0000
0000
0000
0000
0000
0000
0000
0000
1000
0001
0000
0000
0000
0000
0000
0000
0000
0000
0000
0000
0000
0000
0000
0000
,
0110
0001
1000
0101
0000
0000
1000
0000
,
0101
0000
0000
0000
0000
0000
0010
0000
0110
0000
0000
1000
0000
0000
0001
0000
,
1100
0001
0100
0010
1000
0000
0010
1000
,
0012
0000
0000
0000
0000
0000
0000
0000
0000
0000
0000
0000
0003
0000
1000
0001
,
1100
0000
0010
1000
0101
0000
0010
0001
1000
0001
1100
0000
0110
0000
0001
1000
,
0011
0000
0100
0001
1100
0010
1000
0001
0010
0100
1001
0000
1001
0100
0010
0001
,
1010
0000
0001
1000
0101
0000
0010
0100
1000
0100
1001
0000
0101
0000
0010
1000
,
0011
0000
0000
0000
1000
0000
0001
0000
1100
0000
0000
0000
0001
0010
0100
1000
0100
0000
0010
0000
0001
0000
0000
0000
1100
0000
0001
1000
0001
0100
0001
0000
,
1100
0000
0001
1000
0101
0000
1000
0001
0100
0001
1100
0000
1001
0000
0001
1000
,
0011
0000
1000
0010
1100
0010
0100
0001
0010
1100
0010
1100
0011
1000
0010
0100
,
1001
0000
0000
0000
0001
0000
0100
0000
0011
0000
0000
0000
1000
0000
0010
0000
0100
0000
0001
0000
1100
0000
0000
0000
0011
0000
0000
0000
1000
0000
0001
1000
,
0011
0000
0000
0000
1000
0000
0001
1000
0011
0000
0000
0000
0000
0000
0001
1000
0011
0000
0000
0000
0110
0000
0000
0000
1100
0000
0001
0000
0100
0000
0001
0000
,
1100
0000
0010
0000
1001
0100
0010
1000
0100
0000
0010
0001
0010
0100
1000
0010
,
0100
0001
0000
0000
0000
0000
0000
0000
0001
1000
0000
0000
0000
0000
0000
0000
0100
0000
0000
0000
0000
0000
0000
0000
0011
0000
0000
0000
0100
0000
0000
0000
,
1001
0000
0010
1000
0110
0000
0001
0000
1100
0000
0110
0000
1001
0000
0100
0000
,
0011
0000
1000
0000
0010
0000
0100
0000
0001
0000
1000
0000
0100
0000
0010
0000
0001
0000
0010
0100
1000
0000
0010
0000
0100
0000
1001
0000
0000
0000
0000
0000
,
0101
0000
0000
0000
0000
0000
0000
0000
0000
0000
0000
0000
0000
0000
0000
0000
1010
0000
0000
0000
0000
0000
0000
0000
0000
0000
0000
0000
0000
0000
0000
0000
0001
0100
0000
0000
0000
0000
0000
0000
0000
0000
0000
0000
0000
0000
0000
0000
1000
0100
0000
0000
0000
0000
0000
0000
0000
0000
0000
0000
0000
0000
0000
0000
,
1001
0000
0100
0001
1100
0000
1001
0100
0010
1001
0010
1001
1010
0001
1000
0010
,
1100
0000
0010
1000
0011
0000
0110
0000
1100
0000
0000
0110
0000
0001
0000
0000
,
1100
0000
0010
1000
0101
0110
1010
0110
1001
0010
1001
0010
1100
0010
0001
0100
,
1001
0000
0000
0000
0100
0000
0000
0000
0010
0000
0000
0000
0001
0000
0000
0000
0000
0000
0000
0000
1000
0000
0000
0000
0010
0000
0000
0000
1000
0100
0010
0001
,
1100
0010
0100
0001
0000
1000
0010
0100
,
0011
0100
0010
0001
0000
0100
0010
0001
,
1100
0001
0010
0100
1001
0010
0100
0001
,
1100
0001
0100
0010
0000
1000
0110
0000
,
0101
1000
0010
0101
0000
0000
2000
0000
,
3011
0000
0000
0000
0000
0000
0000
0000
1000
0000
0000
0000
0000
0000
0000
0000
0010
0000
0000
0000
0000
0000
0000
0000
0100
0000
0000
0000
0000
0000
0000
0000
0001
1000
0000
0000
0000
0000
0000
0000
0010
0000
0000
0000
0000
0000
0000
0000
0100
0000
0000
0000
0000
0000
0000
0000
0000
0000
0000
0000
0000
0000
0000
0000
,
1001
0000
0100
0010
2000
0000
0000
0000
0000
0000
0002
0000
0000
0000
0000
0000
,
0000
3003
0000
0000
0000
0000
0000
0000
;
